外星人入侵BRip中文

伦理片

深夜福利,微信扫码

敬请期待

 外星人入侵片名: 外星人入侵
发布时间:2014-02-12
外星人入侵迅雷下载地址和剧情:

µçÓ°ÌìÌÃÔÚÏß¹Û¿´

别名:Not Human
导演:Adam R. Steigert
编剧:Janeen Avery, Terry Kimmel
演员表:Jason John Beebe, Robert Bozek, Bill Brown
类型:动作, 惊悚
语言:英语
国家和地区:美国电影
上映时间:2013年05月18日
片长:85分钟

剧情介绍   
       Peaceful, rustic Metzburgh is a quiet village which was a former industrial town whose glory days are long past after the collapse of Metzburgh Grain. Teenager Mark Lowe (Jason John Beebe) and his ex-girlfriend Lucy Greenheart (Sarah Manzella) are stuck in a lovers quarrel when a meteorite crash lands in the passive community. Glen (Robert Bozek ), an ex-employee of the grain silos who became homeless after the collapse of the mills, stumbles upon the fiery crash. Unaware that his find could be dangerous, he gets too close and a chemical poison sprays out of the meteorite, enveloping him. The chemical agent known as Ombis begins to turn his insides into a slimly substance. Unable to stop the spread of the infection, Glen runs onto the road where Mark and Lucy find him. The two take him to the only Doctor in town, Doctor D (Deborah Manzella) Mark and Lucy are shocked by their gruesome discovery and immediately contact the local Sheriff Thomas Brackett (Richard Satterwhite) who is on a ...

和平的乡村Metzburgh是一个安静的村庄,这是一个辉煌的前工业城市早就Metzburgh崩溃后的粮食。十几岁的马克?劳(杰森·约翰·毕比)和他的前女友露西樟树(Sarah Manzella)陷入了恋人争吵当陨石碰撞被动社区的土地。格伦(罗伯特·Bozek),一名前雇员的粮食筒仓后无家可归的米尔斯,偶然发现的。不知道他的发现可能是危险的,
 


      Format : Matroska
      File size : 1 011 MiB
      Duration : 1h 24mn
      Overall bit rate : 1 680 Kbps
      Encoded date : UTC 2010-02-22 21:41:31
      Writing application : mkvmerge v5.9.0 ('On The Loose') built on Dec  9 2012 15:37:01
      Writing library : libebml v1.3.0 + libmatroska v1.4.0
   Video #1
      ID : 1
      Format : AVC
      Format/Info : Advanced Video Codec
      Format profile : High@L3.1
      Format settings, CABAC : Yes
      Format settings, ReFrames : 4 frames
      Muxing mode : Container profile=Unknown@3.1
      Codec ID : V_MPEG4/ISO/AVC
      Duration : 1h 24mn
      Bit rate : 1 455 Kbps
      Nominal bit rate : 1 500 Kbps
      Width : 848 pixels
      Height : 476 pixels
      Display aspect ratio : 16:9
      Frame rate : 25.000 fps
      Resolution : 8 bits
      Colorimetry : 4:2:0
      Scan type : Progressive
      Bits/(Pixel*Frame) : 0.144
      Stream size : 875 MiB (87%)
      Writing library : x264 core 116 r2074 2641b9e
     
   Audio #2
      ID : 2
      Format : AC-3
      Format/Info : Audio Coding 3
      Codec ID : A_AC3
      Duration : 1h 24mn
      Bit rate mode : Constant
      Bit rate : 192 Kbps
      Channel(s) : 2 channels
      Channel positions : L R
      Sampling rate : 44.1 KHz
      Stream size : 115 MiB (11%)
电影截图

µçÓ°ÌìÌÃÔÚÏß¹Û¿´

µçÓ°ÌìÌÃÔÚÏß¹Û¿´
[下载地址]:                 

ftp://www:piaohua.com@dy44.piaohua.com:7845/飘花电影piaohua.com 外星人入侵HRip中文.mkv

番号福利资源请大家合理合规法翻阅,勿乱传播:番号搜索器_番号社电影你懂的 » 外星人入侵BRip中文

赞 (0) 打赏

觉得文章有用就打赏一下文章作者

支付宝扫一扫打赏

微信扫一扫打赏